Quick Browse
Movies
TV shows
Music
Games
Applications
Anime
Other

Latest Articles

Snaptorrents

Jigsaw.2017.FRENCH.720p.WEB-DL.x264-Slay3R.mkv


    Seeders : 0      Leechers : 0


Note :

Please Update (Trackers Info) Before Downloading Torrents to See Updated Seeders And Leechers for Batter Download Speed.

Trackers List

Tracker NameLast CheckStatusSeedersLeechers
http://1337.abcvg.info/announce4 days agosuccess00




Torrent File Content (1 file)


     Jigsaw.2017.FRENCH.720p.WEB-DL.x264-Slay3R.mkv -
2.89 GB



Description




Jigsaw
Qualité WEB-DL 720p | FRENCH (VFQ)


http://img2.picup.co/opt/http://media-cache.cinematerial.com/p/500x/icalf3h4/jigsaw-movie-poster.jpg

Nom de la release : Jigsaw.2017.FRENCH.1080p.WEB-DL.x264-Slay3R.mkv
http://img11.hostingpics.net/pics/843407111906024b5vJ9QSIK8AUHU905.png


Titre original : Saw VIII
Origine : Américain
Réalisation : Michael Spierig
Durée : 1h 32min
Acteur(s) : Matt Passmore,Tobin Bell,Callum Keith Rennie
Genre : Epouvante-horreur,Thriller
Date de sortie : 1 novembre 2017

http://img11.hostingpics.net/pics/685443111906033mxMekpCqA4uWhq009.png


Après une série de meurtres qui ressemblent étrangement à ceux de Jigsaw, le tueur au puzzle, la police se lance à la poursuite d'un homme mort
depuis plus de dix ans. Un nouveau jeu vient de commencer... John Kramer
est-il revenu d'entre les morts pour rappeler au monde qu'il faut sans
cesse célébrer la vie, ou bien s'agit-il d'un piège tendu par un
assassin qui poursuit d'autres ambitions ?

http://img11.hostingpics.net/pics/637428111906033isnsp3Nmuib03pE35.png


Nom de la release : Jigsaw.2017.FRENCH.720p.WEB-DL.x264-Slay3R.mkv
Format : Matroska
Format version : Version 4 / Version 2
File size : 2.89 GiB
Duration : 1 h 32 min
Overall bit rate : 4 485 kb/s
Movie name : EVO
Encoded date : UTC 2018-01-13 16:04:54
Writing application : mkvmerge v18.0.0 ('Apricity') 32-bit
Writing library : libebml v1.3.5 + libmatroska v1.4.8

Video
ID : 1
Format : AVC
Format/Info : Advanced Video Codec
Format profile : [email protected]
Format settings : 2 Ref Frames
Format settings, CABAC : No
Format settings, ReFrames : 2 frames
Codec ID : V_MPEG4/ISO/AVC
Duration : 1 h 31 min
Bit rate : 4 110 kb/s
Width : 1 280 pixels
Height : 532 pixels
Display aspect ratio : 2.40:1
Frame rate mode : Constant
Frame rate : 23.976 (24000/1001) FPS
Color space : YUV
Chroma subsampling : 4:2:0
Bit depth : 8 bits
Scan type : Progressive
Bits/(Pixel*Frame) : 0.252
Stream size : 2.64 GiB (91%)
Language : English
Default : Yes
Forced : No
Color range : Limited
Color primaries : BT.709
Transfer characteristics : BT.709
Matrix coefficients : BT.709

Audio
ID : 2
Format : AC-3
Format/Info : Audio Coding 3
Codec ID : A_AC3
Duration : 1 h 32 min
Bit rate mode : Constant
Bit rate : 384 kb/s
Channel(s) : 2 channels
Channel positions : Front: L R
Sampling rate : 48.0 kHz
Frame rate : 31.250 FPS (1536 SPF)
Bit depth : 16 bits
Compression mode : Lossy
Stream size : 253 MiB (9%)
Title : AC3 French
Service kind : Complete Main
Default : Yes
Forced : No

Menu
00:00:00.000 : en:1
00:10:40.000 : en:2
00:22:40.000 : en:3
00:31:30.000 : en:4
00:43:10.000 : en:5
00:52:59.000 : en:6
01:04:14.000 : en:7
01:13:58.000 : en:8
01:25:00.000 : en:9

Related torrents

Torrent NameAddedSizeSeedLeechHealth
22 days ago - in Movies2.69 GB622
Verified torrent
2 months ago - in Movies936.54 MB17613
8 days ago - in Movies693.74 MB18
Verified torrent
Last Month - in Movies951.42 MB46
Verified torrent
Last Month - in Movies1.39 GB34
Verified torrent
2 months ago - in Movies1.37 GB53



Comments (0 Comments)




Latest Searches