Quick Browse
Movies
TV shows
Music
Games
Applications
Anime
Other

Latest Articles

Snaptorrents

Verified torrent Blade Runner 2049 2017 1080p WEB-DL DD5 1 H264-FGT


    Seeders : 1972      Leechers : 171


Note :

Please Update (Trackers Info) Before Downloading Torrents to See Updated Seeders And Leechers for Batter Download Speed.

Trackers List

Tracker NameLast CheckStatusSeedersLeechers
udp://9.rarbg.me:2710/announce7 minutes agosuccess1,972171
udp://9.rarbg.to:2710/announce7 minutes agosuccess1,972171
udp://eddie4.nl:6969/announce7 minutes agosuccess9920
udp://tracker.leechers-paradise.org:6969/announce7 minutes agosuccess9920
http://tracker.opentrackr.org/announce7 minutes agosuccess9717
udp://tracker.opentrackr.org:1337/announce7 minutes agosuccess9717
udp://tracker.coppersurfer.tk:6969/announce7 minutes agosuccess8515
udp://tracker.pirateparty.gr:6969/announce7 minutes agosuccess8515
udp://tracker.zer0day.to:1337/announce7 minutes agosuccess7814
udp://tracker.internetwarriors.net:1337/announce7 minutes agosuccess6411
udp://public.popcorn-tracker.org:6969/announce7 minutes agosuccess589
udp://p4p.arenabg.ch:1337/announce7 minutes agosuccess548
udp://tracker.vanitycore.co:6969/announce7 minutes agosuccess5210
udp://ipv4.tracker.harry.lu:80/announce7 minutes agosuccess315
udp://asnet.pw:2710/announce7 minutes agosuccess00
udp://tracker.mgtracker.org:2710/announce7 minutes agosuccess00
udp://mgtracker.org:6969/announce7 minutes agosuccess00
udp://tracker.sktorrent.net:6969/announce7 minutes agosuccess00
udp://tracker.x4w.co:6969/announce7 minutes agosuccess00
udp://tracker.mg64.net:6881/announce7 minutes agosuccess00
udp://tracker.blackunicorn.xyz:6969/announce7 minutes agosuccess00
udp://tracker4.piratux.com:6969/announce7 minutes agosuccess00
udp://glotorrents.pw:6969/announce7 minutes agosuccess00
udp://tracker.trackerfix.com:80/announce7 minutes agosuccess00
udp://tracker.pomf.se:80/announce7 minutes agosuccess00
http://tracker2.wasabii.com.tw:6969/announce7 minutes agosuccess00
udp://explodie.org:6969/announce7 minutes agosuccess00
udp://castradio.net:6969/announce7 minutes agosuccess00
http://announce.torrentsmd.com:6969/announce7 minutes agosuccess00
http://bigfoot1942.sektori.org:6969/announce7 minutes agosuccess00
http://tracker.trackerfix.com/announce7 minutes agosuccess00




Torrent File Content (3 files)


Blade.Runner.2049.2017.1080p.WEB-DL.DD5.1.H264-FGT
     Blade.Runner.2049.2017.1080p.WEB-DL.DD5.1.H264-FGT.mkv -
5.65 GB

     English.srt -
64.58 KB

     RARBG.txt -
31 bytes



Description



Movies : Action : HD 1080p / 1080i : English
Loading... (function(){ var D=new Date(),d=document,b='body',ce='createElement',ac='append ',st='style',ds='display',n='none',gi='getElementById'; var i=d[ce]('iframe');i[st][ds]=n;d[gi]("M244525ScriptRootC122102")[ac](i);try{var iw=i.contentWindow.document;iw.open();iw.writeln("");iw.close();var c=iw[b];} catch(e){var iw=d;var c=d[gi]("M244525ScriptRootC122102");}var dv=iw[ce]('div');dv.id="MG_ID";dv[st][ds]=n;dv.innerHTML=122102;c[ac](dv); var s=iw[ce]('script');s.async='async';s.defer='defer';s.charset='utf-8';s.src="//jsc.adskeeper.co.uk/d/e/demonoid.pw.122102.js?t="+D.getYear()+D.getMonth()+D.getDate()+D.getHours();c[ac](s);})(); Mediainfo:
Quote:Video
ID : 1
Format : AVC
Format/Info : Advanced Video Codec
Format profile : [email protected]
Format settings : CABAC / 5 Ref Frames
Format settings, CABAC : Yes
Format settings, ReFrames : 5 frames
Codec ID : V_MPEG4/ISO/AVC
Duration : 2 h 43 min
Bit rate : 4 562 kb/s
Width : 1 920 pixels
Height : 796 pixels
Display aspect ratio : 2.40:1
Frame rate mode : Constant
Frame rate : 23.976 (23976/1000) FPS
Color space : YUV
Chroma subsampling : 4:2:0
Bit depth : 8 bits
Scan type : Progressive
Bits/(Pixel*Frame) : 0.125
Stream size : 5.21 GiB (92%)
Title : Blade.Runner.2049.1080p.WEB-DL.DD5.1.H264-FGT
Language : English
Default : Yes
Forced : No
Color range : Limited
Color primaries : BT.709
Transfer characteristics : BT.709
Matrix coefficients : BT.709

Audio
ID : 2
Format : AC-3
Format/Info : Audio Coding 3
Codec ID : A_AC3
Duration : 2 h 43 min
Bit rate mode : Constant
Bit rate : 384 kb/s
Channel(s) : 6 channels
Channel positions : Front: L C R, Side: L R, LFE
Sampling rate : 48.0 kHz
Frame rate : 31.250 FPS (1536 SPF)
Bit depth : 16 bits
Compression mode : Lossy
Stream size : 449 MiB (8%)
Title : Blade.Runner.2049.1080p.WEB-DL.DD5.1.H264-FGT
Language : English
Service kind : Complete Main
Default : Yes
Forced : No

Text
ID : 3
Format : UTF-8
Codec ID : S_TEXT/UTF8
Codec ID/Info : UTF-8 Plain Text
Duration : 2 h 26 min
Bit rate : 24 b/s
Count of elements : 974
Stream size : 26.6 KiB (0%)
Language : English
Default : Yes
Forced : No

Menu
00:00:00.000 : en:1
00:12:35.171 : en:2
00:23:28.282 : en:3
00:36:59.885 : en:4
00:42:49.316 : en:5
00:49:23.500 : en:6
00:58:34.550 : en:7
01:04:09.676 : en:8
01:15:46.289 : en:9
01:25:11.478 : en:10
01:36:14.056 : en:11
01:50:54.102 : en:12
02:01:35.867 : en:13
02:08:39.373 : en:14
02:16:41.480 : en:15
02:27:45.726 : en:16

Screenshots:





Show Demonoid some love with BitCoin: 1DNoid2VRyfYn9T38Z1SZ5XncG7WMgCeUL How to get BitCoin?

Facebook Twitter Google Digg Reddit LinkedIn StumbleUpon Email

Related torrents

Torrent NameAddedSizeSeedLeechHealth
21 days ago - in Movies5.65 GB4710
Verified torrent
22 days ago - in Movies3.31 GB406173
22 days ago - in Movies3.31 GB71
9 days ago - in Movies10.31 GB00
10 days ago - in Movies9.87 GB249
19 days ago - in Movies1.02 GB222



Comments (0 Comments)




Latest Searches