Quick Browse
Movies
TV shows
Music
Games
Applications
Anime
Other

Latest Articles

Snaptorrents

Verified torrent Acts of Violence 2018 1080p WEB-DL DD 5.1 x264


    Seeders : 36      Leechers : 15


Note :

Please Update (Trackers Info) Before Downloading Torrents to See Updated Seeders And Leechers for Batter Download Speed.

Trackers List

Tracker NameLast CheckStatusSeedersLeechers
udp://tracker.leechers-paradise.org:6969/announceYesterdaysuccess367
udp://tracker.coppersurfer.tk:80/announceYesterdaysuccess367
udp://tracker.coppersurfer.tk:6969/announceYesterdaysuccess367
udp://tracker.pirateparty.gr:6969/announceYesterdaysuccess367
udp://eddie4.nl:6969/announceYesterdaysuccess367
http://open.kickasstracker.com/announceYesterdaysuccess3415
udp://9.rarbg.to:2710/announceYesterdaysuccess256
udp://9.rarbg.me:2710/announceYesterdaysuccess256
udp://9.rarbg.to:2720/announceYesterdaysuccess256
udp://tracker.opentrackr.org:1337/announceYesterdaysuccess165
http://tracker.opentrackr.org/announceYesterdaysuccess165
udp://public.popcorn-tracker.org:6969/announceYesterdaysuccess142
udp://tracker.internetwarriors.net:1337/announceYesterdaysuccess134
udp://tracker.vanitycore.co:6969/announceYesterdaysuccess112
http://open.kickasstracker.com:443/announce5 days agosuccess613
udp://ipv4.tracker.harry.lu:80/announceYesterdaysuccess61
udp://tracker4.piratux.com:6969/announceYesterdaysuccess00
udp://tracker.zer0day.to:1337/announceYesterdaysuccess00
udp://tracker.mgtracker.org:2710/announceYesterdaysuccess00
udp://mgtracker.org:6969/announceYesterdaysuccess00
udp://tracker.sktorrent.net:6969/announceYesterdaysuccess00
udp://tracker.x4w.co:6969/announceYesterdaysuccess00
udp://asnet.pw:2710/announceYesterdaysuccess00
udp://tracker.mg64.net:6881/announceYesterdaysuccess00
http://tracker.trackerfix.com/announceYesterdaysuccess00
http://bigfoot1942.sektori.org:6969/announceYesterdaysuccess00
http://announce.torrentsmd.com:6969/announceYesterdaysuccess00
udp://castradio.net:6969/announceYesterdaysuccess00
udp://p4p.arenabg.ch:1337/announceYesterdaysuccess00
udp://explodie.org:6969/announceYesterdaysuccess00
http://tracker2.wasabii.com.tw:6969/announceYesterdaysuccess00
udp://tracker.pomf.se:80/announceYesterdaysuccess00
udp://tracker.trackerfix.com:80/announceYesterdaysuccess00
udp://glotorrents.pw:6969/announceYesterdaysuccess00
udp://tracker.blackunicorn.xyz:6969/announceYesterdaysuccess00




Torrent File Content (1 file)


Acts of Violence 2018 1080p WEB-DL DD 5.1 x264
     Acts of Violence 2018 1080p WEB-DL DD 5.1 x264.mkv -
1.33 GB



Description




[url=http://pichub.site/image/kxx5]
http://pichub.site/images/2018/01/13/acts-of-violence-poster.jpg
[/url]


General
Format : Matroska
Format version : Version 4 / Version 2
File size : 1.33 GiB
Duration : 1 h 26 min
Overall bit rate : 2 189 kb/s

Video
ID : 1
Format : AVC
Format/Info : Advanced Video Codec
Format profile : [email protected]
Format settings : CABAC / 4 Ref Frames
Format settings, CABAC : Yes
Format settings, ReFrames : 4 frames
Codec ID : V_MPEG4/ISO/AVC
Duration : 1 h 26 min
Bit rate : 2 000 kb/s
Width : 1 908 pixels
Height : 792 pixels
Display aspect ratio : 2.40:1
Frame rate mode : Constant
Frame rate : 23.976 (24000/1001) FPS
Color space : YUV
Chroma subsampling : 4:2:0
Bit depth : 8 bits
Scan type : Progressive
Bits/(Pixel*Frame) : 0.055
Stream size : 1.17 GiB (88%)
Writing library : x264 core 148 r2708 86b7198
Default : Yes
Forced : No

Audio
ID : 2
Format : AC-3
Format/Info : Audio Coding 3
Codec ID : A_AC3
Duration : 1 h 26 min
Bit rate mode : Constant
Bit rate : 256 kb/s
Channel(s) : 6 channels
Channel positions : Front: L C R, Side: L R, LFE
Sampling rate : 48.0 kHz
Frame rate : 31.250 FPS (1536 SPF)
Bit depth : 16 bits
Compression mode : Lossy
Stream size : 159 MiB (12%)
Language : English
Service kind : Complete Main
Default : Yes
Forced : No




[url=http://pichub.site/image/kmYg]
http://pichub.site/images/2018/01/13/00_04_02.jpg
[/url]
[url=http://pichub.site/image/kuzI]
http://pichub.site/images/2018/01/13/00_16_56.jpg
[/url]
[url=http://pichub.site/image/kG2X]
http://pichub.site/images/2018/01/13/00_30_42.jpg
[/url]
[url=http://pichub.site/image/kNj8]
http://pichub.site/images/2018/01/13/00_33_30.jpg
[/url]
[url=http://pichub.site/image/kvwJ]
http://pichub.site/images/2018/01/13/00_55_33.jpg
[/url]
[url=http://pichub.site/image/k0Th]
http://pichub.site/images/2018/01/13/00_55_49.jpg
[/url]


Related torrents

Torrent NameAddedSizeSeedLeechHealth
6 days ago - in Movies1.71 GB5913
6 days ago - in Movies3 GB11026
Verified torrent
6 days ago - in Movies3 GB1,934321
6 days ago - in Movies3 GB63
Verified torrent
6 days ago - in Movies3 GB203
5 days ago - in Movies709.62 MB73



Comments (0 Comments)




Latest Searches